へびーめたる [音楽]
1投稿者:ヘリオン  投稿日:2007年01月25日(木) 19時24分15秒
ヘビーメタルを語ろう
2投稿者:語ろうよ  投稿日:2007年03月13日(火) 00時05分47秒
 
3投稿者:ごん  投稿日:2008年04月10日(木) 23時45分53秒
ドラゴン ホース ってバンドだけどギターがかっこいい
4投稿者:けつこんさきし  投稿日:2008年08月08日(金) 22時29分01秒
おふのみいきこ
5投稿者:ヽ(´〜`)ノ  投稿日:2009年01月11日(日) 14時08分46秒
This board was occupied by the eel denomination of TAKEUCHI faction.
6投稿者:削除跡 投稿日:時空の歪
7投稿者: 投稿日:2010年02月27日(土) 18時18分31秒
ブラックメタル
8投稿者:削除跡 投稿日:時空の歪
9投稿者:削除跡 投稿日:時空の歪
10投稿者:σ(VェV)  投稿日:2020年09月05日(土) 14時31分49秒
できるかな
11投稿者:σ(VェV)  投稿日:2020年09月05日(土) 14時36分51秒
https://mutebank.co.uk/collections/erasure-the-neon/products/erasure-the-neon-limited-edition-green-coloured-cassette

来た!
12投稿者:σ(VェV)  投稿日:2020年09月05日(土) 14時43分39秒
https://light.dotup.org/uploda/light.dotup.org670976.jpg
https://light.dotup.org/uploda/light.dotup.org670977.jpg
ほぼ使ってなかったずっと前のSONYにカセット入れて
うあー!
カセットの音!!
13投稿者:σ(VェV)  投稿日:2020年09月05日(土) 14時45分40秒
今アップロードするので気づいた
ききながら写真とったのでカセットが写ってない..
14投稿者:σ(VェV)  投稿日:2020年09月05日(土) 14時51分58秒
それとそのSONYにオートリバースがなかった
ほぼ20分?おきにA面B面入れ替えに行く

だけど
ご機嫌
15投稿者:σ(VェV)  投稿日:2020年09月05日(土) 20時19分56秒
それで頭出しもリモコンもないから
一面全部きいて入れ替えに行ってまた一面全部きく
楽しい

発売済みだからYoutubeにももちろんあるんだけどいったんカセットの音できいたら
音が違う
変な感じHAHA
16投稿者:σ(VェV)  投稿日:2020年09月05日(土) 20時27分53秒
カセットはダウンロードコード付き(たぶんCD音質)
後で落とそう
そしたらMDR7506くん出動
カセットはスピーカーで気分
もちろんSpotifyとAppleにもあるよ
17投稿者:σ(VェV)  投稿日:2020年09月05日(土) 20時33分45秒
MSP3買おっかなあ
18投稿者:σ(VェV)  投稿日:2020年09月05日(土) 20時38分26秒
Rogers売った後サウンドスピーカーくんのみだったからなー
19投稿者:σ(VェV)  投稿日:2020年09月05日(土) 20時41分55秒
てか今見たらRogers BBCスゲー高値が付いてるんだなびっくり
もう何年も前でオーディオユニオンでペアで買い取り8万だったもんなあ
20投稿者:σ(VェV)  投稿日:2020年09月05日(土) 20時44分09秒
ω18
サウンドバーくんだ訂正ごめん
21投稿者:σ(VェV)  投稿日:2020年09月06日(日) 12時10分14秒
のびちゃうかなと思ってカセットテープちょびっと自重
けちくせー俺w
22投稿者:σ(VェV)  投稿日:2020年09月06日(日) 23時03分11秒
りりりりりりりりり
秋の虫が鳴いてる
23投稿者:σ(VェV)  投稿日:2020年09月06日(日) 23時18分23秒
Lightnin' Hopkins-Darling, Do You Remember Me?
https://youtu.be/5JTlsNYgZak


 
24投稿者:σ(VェV)  投稿日:2020年09月06日(日) 23時19分10秒
会いたいなあ
25投稿者:σ(VェV)  投稿日:2020年09月07日(月) 13時58分36秒
カセットプレイヤー
そ走行が
びくびく
26投稿者:σ(VェV)  投稿日:2020年09月07日(月) 14時05分44秒
気に入ったので
Echo & The Bunnymenなどのライヴ音源山ほど持ってるやつが確かUKにいたからカセットに録音してもらって買おうかと思ったんだけど
こ、これでは
27投稿者:σ(VェV)  投稿日:2020年09月07日(月) 14時15分56秒
えっ見つからない
まさか消えた
28投稿者:σ(VェV)  投稿日:2020年09月07日(月) 14時29分32秒
うわない消えた..2015年ごろからアップデートはなかったんだけど
これはきついな
他にもコレクション凄かったからな
29投稿者:σ(VェV)  投稿日:2020年09月08日(火) 14時48分27秒
Aztec Camera - Rainy Season
https://youtu.be/JS7wZsYPiJg

30投稿者:σ(VェV)  投稿日:2020年09月08日(火) 14時58分51秒
When the rainy season comes
I hang my head
For all the things I've seen
And done and said
And then I wonder why
I hold my head up high
And feel the rain

https://www.discogs.com/Aztec-Camera-Frestonia/release/2742219
何でだよレベルの Producer – Clive Langer & Alan Winstanleyが
楽曲そのものにどれくらい関わったのかわからないけど
このアルバムの中でこの曲(だけ)はいい!
31投稿者:σ(VェV)  投稿日:2020年09月09日(水) 12時31分28秒
Roddy Frame - Seven Dials Tour 2014 FULL SHOW
https://youtu.be/q2Glu_eLL2w

楽しそー
32投稿者:σ(VェV)  投稿日:2020年09月09日(水) 13時21分35秒
https://youtu.be/q2Glu_eLL2w?t=3000

clap faster

だって
33投稿者:σ(VェV)  投稿日:2020年09月09日(水) 20時06分39秒
ライヴを録画やストリーミングしてくれる皆
それを許してくれるミュージシャンサイド
ありがとー!
34投稿者:σ(VェV)  投稿日:2020年09月09日(水) 21時17分40秒
https://youtu.be/q2Glu_eLL2w?t=6140

何このギター
35投稿者:σ(VェV)  投稿日:2020年09月10日(木) 10時51分56秒
RODDY FRAME The ICA London 28th October 2006
https://youtu.be/9iyNQHWmpws
RODDY FRAME The Institute of Contemporary Arts London 28th October 2006
C86 Twenty Years On Night
(音声のみ)
36投稿者:σ(VェV)  投稿日:2020年09月10日(木) 10時53分31秒
Roddy Frame - High Land Hard Rain Anniversary Show 2013
https://youtu.be/i4wsINiEjeE
On 4 December 2013 Roddy Frame performed Aztec Camera's classic album High Land Hard Rain in its entirety at the Royal Concert Hall in Glasgow.
37投稿者:σ(VェV)  投稿日:2020年09月10日(木) 13時52分04秒
The Psychedelic Furs - Peel Session 1979
https://youtu.be/1-HgPKzJHv4
38投稿者:σ(VェV)  投稿日:2020年09月11日(金) 19時29分45秒
(video) Roddy Frame & Ian McCulloch "The Killing Moon"
https://youtu.be/2INihVcDh7k
Barcelona.
27th May 1992.
both of them drunk.

39投稿者:σ(VェV)  投稿日:2020年09月11日(金) 19時30分41秒
いいなこれ..
40投稿者:σ(VェV)  投稿日:2020年09月11日(金) 19時38分53秒
https://www.killermontstreet.net/archive/articles/enconter.shtml
Ian McCulloch and Roddy Frame Brief Encounters
from The Scotsman, December 10, 1994
by Ian McCulloch
41投稿者:σ(VェV)  投稿日:2020年09月11日(金) 19時49分02秒
ω31
ω36
アップローダー
https://www.youtube.com/channel/UClbjhB5pKCzEnpm87Gs-AUQ
ここの人なんだな
http://www.killermontstreet.net/
すげーやコレクション
42投稿者:σ(VェV)  投稿日:2020年09月11日(金) 19時56分21秒
AZTEC CAMERA Kid Jensen 28th February 1983
https://youtu.be/AMny8OCB9ZI

うわあ..

Peel sessionとKid Jensenはほんとにgem
誰も彼もアルバムバージョンより全然いい
やっぱ音楽はライブだよなああああ
43投稿者:σ(VェV)  投稿日:2020年09月11日(金) 21時38分35秒
THE STYLE COUNCIL Kid Jensen 5th May 1983
https://youtu.be/Y0e59uA3RhI

44投稿者:σ(VェV)  投稿日:2020年09月12日(土) 20時45分15秒
ω41
http://killermontstreet.net/archive/video/
Roddy Frame: Electronic Press Kit
A North Star promo video put out by Independiente in 1999. Includes an interview with Roddy and several acoustic song snippets performed in the studio.
Real Video | Size: 3.05mb | Length: 11m 52s

を落としてみた
45投稿者:σ(VェV)  投稿日:2020年09月12日(土) 20時49分08秒
General
Complete name : epk.rm
Format : RealMedia
File size : 2.98 MiB
Duration : 11 min 51 s
Overall bit rate : 34.0 kb/s
Video
ID : 1
Format : RealVideo 2
Codec ID : RV20
Codec ID/Info : Based on H.263, Real Player 6
Duration : 11 min 51 s
Bit rate : 26.0 kb/s
Width : 176 pixels
Height : 144 pixels
Display aspect ratio : 1.222
Frame rate : 15.000 FPS
Bits/(Pixel*Frame) : 0.068
Stream size : 2.20 MiB (74%)
Audio
ID : 0
Format : Cooker
Codec ID : cook
Codec ID/Info : Based on G.722.1, Real Player 6
Duration : 11 min 52 s
Bit rate : 8 000 b/s
Channel(s) : 1 channel
Sampling rate : 8 000 Hz
Bit depth : 16 bits
Stream size : 696 KiB (23%)

このへんがすごい
Frame rate : 15.000 FPS
Channel(s) : 1 channel
Sampling rate : 8 000 Hz
46投稿者:σ(VェV)  投稿日:2020年09月12日(土) 20時50分20秒
だけどインタビューやレコーディング風景も入っててお得
47投稿者:σ(VェV)  投稿日:2020年09月12日(土) 20時56分28秒
https://www.youtube.com/channel/UClbjhB5pKCzEnpm87Gs-AUQ
チャンネルに上げてない
Youtubeに誰も上げてない
もったいないな..
サイトからもらえてよかったありがとう
48投稿者:σ(VェV)  投稿日:2020年09月12日(土) 21時05分06秒
http://killermontstreet.net/interact/postcards/
でポストカードも送ってみた(自分に)
来るかな
49投稿者:σ(VェV)  投稿日:2020年09月12日(土) 21時06分37秒
来た!
さばに1週間くらいあるから急いでプリントするか保存してね
だって
50投稿者:σ(VェV)  投稿日:2020年09月14日(月) 13時12分32秒
Aztec Camera - Whistle Test On The Road
https://youtu.be/sdqIsO6aivM
Aztec Camera live from Aston University on 13 December 1983. The concert was recorded for BBC TV's Whistle Test On The Road. This is the full broadcast which screened in the UK on 16 December 1983 and has not been repeated since.
投稿者 メール
(゚Д゚) <
  新着レス 次レスから レス全部を見る 掲示板に戻る 上へ
このエントリーをはてなブックマークに追加